Tento web používa k poskytovaniu služieb, personalizácii a analýze návštevnosti súbory cookie. Používaním tohto webu s tým súhlasíte.Súhlasím Čítaj viac.

Ariana Grande - Into You (2016)

Všetky americké klipy sem!

30 Máj 2016, 20:16

Obrázok

General

Complete name : Ariana Grande - Into You.mp4
Format : MPEG-4
Format profile : Base Media
Codec ID : isom
File size : 70.9 MiB
Duration : 4mn 14s
Overall bit rate : 2 334 Kbps
Movie name : Into You [P-DawG]
Album : Dangerous Woman
Track name/Position : 4
Performer : Ariana Grande
Genre : Dance\Pop
Cover : Yes


Video

ID : 1
Format : AVC
Format/Info : Advanced Video Codec
Format profile : High@L4.0
Format settings, CABAC : Yes
Format settings, ReFrames : 3 frames
Format settings, GOP : M=2, N=54
Codec ID : avc1
Codec ID/Info : Advanced Video Coding
Duration : 4mn 14s
Bit rate mode : Variable
Bit rate : 2 201 Kbps
Width : 1 920 pixels
Height : 1 080 pixels
Display aspect ratio : 16:9
Frame rate mode : Constant
Frame rate : 23.976 fps
Stream size : 66.9 MiB (94%)


Audio

ID : 2
Format : AAC
Format/Info : Advanced Audio Codec
Format profile : LC
Codec ID : 40
Duration : 4mn 14s
Bit rate mode : Constant
Bit rate : 126 Kbps
Channel(s) : 2 channels
Channel positions : Front: L R
Sampling rate : 44.1 KHz
Compression mode : Lossy
Stream size : 3.82 MiB (5%)

Obrázok
Odkaz na stiahnutie:
Pre zobrazenie odkazov sa musíte alebo
Obrázok užívateľa
Sw33t
Moderátor
Rank:
Moderátor
Príspevky:
9471
Poďakovania:
1365
Registrovaný:
19.04.2008
Bydlisko:
Trenčín

Späť na (US) americké



 


  • Podobné témy
    Odpovede
    Zobrazenia
    Posledný príspevok

Kto je on-line

Registrovaní užívatelia:
Bing [Bot], Exabot [Bot], Google [Bot], Google Feedfetcher, loschmann, Saboter, Yahoo [Bot]