Kontrafakt - Murdardo Mulano Tour 2005 DVDRip XviD

Archív príspevkov od roku 2008 po február 2014

05 Dec 2008, 22:58

Kontrafakt - Murdardo Mulano Tour 2005 DVDRip XviD


Obrázok

Obrázok

Obrázok



Obrázok

    Súbor

    Formát : AVI
    Formát/Info : Audio Video Interleave
    Velikost souboru : 701 MiB
    Duration : 1h 10mn
    Celkový BitRate : 1 383 Kbps
    Použitý software : MEncoder dev-CVS-060101-18:59-4.0.2
    Enkódoval : MPlayer


    Audio:

    Formát : MPEG Audio
    Format version : Version 1
    Format profile : Layer 3
    Codec ID : 55
    Codec ID/Hint : MP3
    Duration : 1h 10mn
    Bit rate mode : Constant
    Bit rate : 128 Kbps
    Kanál(y) : 2 kanály
    Sampling rate : 48,0 KHz
    Rozlišení : 16 bits
    Stream size : 64,9 MiB (9%)
    Alignment : Aligned on interleaves
    Interleave, duration : 24 ms (0,60 video frame)
    Interleave, preload duration : 504 ms


    Video

    Formát : MPEG-4 Visual
    Format profile : Simple@L1
    Format settings, BVOP : Ne
    Format settings, QPel : Ne
    Format settings, GMC : No warppoints
    Format settings, Matrix : Default
    Codec ID : DIVX
    Codec ID/Info : Project Mayo
    Codec ID/Hint : DivX 4
    Duration : 1h 10mn
    Bit rate : 1 242 Kbps
    Šírka : 640pixely
    Výška : 272pixely
    Pomer stran : 2.35
    Frame rate : 25,000 fps
    Rozlišení : 24 bits
    Colorimetry : 4:2:0
    Scan type : Progressive
    Bits/(Pixel*Frame) : 0.285
    Stream size : 630 MiB (90%)
    Enkódoval : Lavc51.0.0


Obrázok

Odkaz na stiahnutie:
Pre zobrazenie odkazov sa musíte alebo



Obrázok

Odkaz na stiahnutie:
Pre zobrazenie odkazov sa musíte alebo
Naposledy upravil Stoky111 dňa 12 Dec 2008, 19:33, celkovo upravené 1
Dôvod: Spam premazany
Obrázok užívateľa
anonym 1234
Závislák
Rank:
Závislák
Príspevky:
196
Poďakovania:
1
Registrovaný:
11.11.2008

Späť na Archív 2008-2013



 


  • Podobné témy
    Odpovede
    Zobrazenia
    Posledný príspevok

Kto je on-line

Registrovaní užívatelia:
Baidu [Spider], Bing [Bot], Exabot [Bot], Fizzko, fresh31, Google [Bot], Google Feedfetcher, huplik, imthewest, jjacob, K4m1kaz3, kovanic, Pepe II Dragon, Seznam [Bot], xxxxxx, Yahoo [Bot], zedoo, Zumzumzum